#TITLE:OH MY JULIET;
#SUBTITLE:- Red Garden 2nd Ending;
#ARTIST:LM.C;
#TITLETRANSLIT:;
#SUBTITLETRANSLIT:;
#ARTISTTRANSLIT:;
#CREDIT:Jubo;
#BANNER:Red Garden 2nd ED-bn.png;
#BACKGROUND:Red Garden 2nd ED-bg.jpg;
#LYRICSPATH:Red Garden 2nd ED.lrc;
#CDTITLE:Jubo.png;
#MUSIC:Red Garden 2nd ED.mp3;
#OFFSET:0.696;
#SAMPLESTART:40.130;
#SAMPLELENGTH:27.510;
#SELECTABLE:YES;
#BPMS:0.000=194.000;
#STOPS:;
#BGCHANGES:2.250=Red Garden 2nd ED-Video.avi=1.000=1=0=0,
286.500=Red Garden 2nd ED-bg.jpg=1.000=1=0=0,
99999=-nosongbg-=1.000=0=0=0 // don't automatically add -songbackground-
;
// cache tags:
#FIRSTBEAT:4.000;
#LASTBEAT:288.021;
#SONGFILENAME:songs/Otaku's Dream 3rd Anime Mix/[Jubo] OH MY JULIET - Red Garden 2nd ED/Red Garden 2nd ED.sm;
#HASMUSIC:1;
#HASBANNER:1;
#MUSICLENGTH:89.947;
// end cache tags

//---------------dance-single - ----------------
#NOTES:
     dance-single:
     :
     Hard:
     9:
     0.699,0.680,0.378,0.145,0.000,393.000,34.000,13.000,0.000,0.000:
0000
0000
0000
0000
,
1000
0001
1000
0010
0000
0000
0110
0000
,
0001
1000
0001
1000
0100
0000
0000
0110
,
0000
0001
0100
0001
0100
0010
1000
0000
,
0001
1000
0100
0000
,
1000
0100
0010
0001
0010
0100
1000
0000
,
0000
0001
0100
0001
0010
0000
0000
0000
,
0001
0010
0100
1000
0100
0010
0001
0000
,
1000
0010
0100
0001
0000
0000
0000
0000
,
0000
1000
0001
1000
,
0001
0100
0010
0100
0010
0000
0110
0000
,
0000
0000
1000
0010
0100
0010
0100
0001
,
0010
0100
1000
0001
1000
0000
1001
0000
,
0000
0000
0100
0001
1000
0001
0010
0100
,
1000
0010
0100
0001
0100
0000
0110
0000
,
0200
0000
0000
0310
0000
0000
0100
0000
,
0020
0000
0000
0130
0010
0000
0000
0000
,
0000
0000
1000
0001
0100
0001
1000
0010
,
0100
0001
0100
0010
1000
0001
1000
0000
,
0000
0000
0001
1000
0010
1000
0001
0100
,
0010
1000
0010
0100
0001
1000
0001
0000
,
0000
0000
0100
0010
1000
0010
0100
0001
,
1000
0001
1000
0010
0100
0001
1000
0000
,
2000
0000
0000
3001
0000
0000
1000
0000
,
0002
0000
0000
1003
0001
0000
0000
0000
,
0100
0010
0001
0010
0100
0010
0001
0010
,
0100
0110
0110
0110
,
0010
0100
1000
0100
0010
0100
1000
0100
,
0010
1010
1010
1010
,
0010
1000
0010
0100
0010
0001
0010
1000
,
0001
1001
1001
1001
,
0100
0001
0100
0010
0100
1000
0100
0001
,
0100
0101
0101
0101
,
1001
0110
0020
0230
,
0320
0000
0000
0000
0000
0030
0000
0000
,
1000
1000
0010
0100
,
0001
0100
0101
0001
,
0001
0100
1000
0100
,
0001
0100
0001
0100
0010
0000
0010
0000
,
0100
0001
1001
1000
,
0010
1000
0010
0000
1010
0000
1000
0000
,
1000
0010
0001
0010
,
1000
0010
1000
0010
0100
0010
0100
0000
,
0010
0000
0100
0000
0110
0000
0010
0100
,
0010
1000
0001
0000
1001
0000
1000
0000
,
0010
0000
0100
0001
0010
0000
0001
0000
,
1000
0000
0010
1000
0100
0000
1000
0000
,
0100
0000
0010
0000
1001
0000
1000
0001
,
0000
0001
1000
0000
1001
0000
0001
0000
,
0002
0100
2003
0100
,
3001
1000
0001
1000
0010
0100
0010
0100
,
0001
0100
0010
1000
0010
0100
0001
1000
,
0100
0010
0001
1000
0100
0010
0001
0010
,
0100
1000
0001
0100
0010
0100
0010
1000
,
0100
0010
0001
0010
0100
1000
0001
1000
,
0001
0100
0010
0100
0010
1000
0010
0100
,
0001
0100
0010
1000
0100
1000
0100
1000
,
0100
0010
0100
0010
0001
0100
0001
0100
,
0010
0000
1010
0000
0010
1000
0010
0000
,
1000
0010
1000
0000
0001
1000
0001
0000
,
0100
0001
0100
0000
0010
0100
0010
0000
,
1000
0010
1000
0000
0001
0100
0001
0000
,
0001
0010
1000
0010
,
0001
0011
0000
1001
,
0110
1010
0101
0002
,
0103
0100
0100
0010
0010
0010
0010
0010
,
1000
1000
0001
0001
0001
0001
0001
0001
,
0001
0010
0001
0010
0001
0010
0100
1000
,
0100
1000
0100
1000
0100
0010
0002
0000
,
0003
1000
0001
1000
0100
0010
0001
1000
,
0010
0100
0001
1000
0000
0010
0000
1010
,
2020
0000
0000
0000
0000
0030
0000
0000
0000
0000
0000
0000
0000
0000
0000
0000
,
3000
0000
0000
0000
;

//---------------dance-single - Step by Jubo----------------
#NOTES:
     dance-single:
     Step by Jubo:
     Challenge:
     10:
     1.000,1.000,1.000,0.567,0.139,565.000,133.000,51.000,0.000,0.000:
0000
0000
0000
0000
,
1000
0000
0001
0000
1000
0000
0010
0000
0100
0000
0100
0000
0100
0000
0010
0100
,
0001
1000
0001
1000
0100
0010
0010
0110
,
0100
0000
0010
0000
1000
0000
0010
0000
1000
0000
0100
0000
0010
0000
0100
0010
,
1000
0001
0001
0010
0010
0100
0100
1000
,
1100
0100
0110
0010
0011
0001
1001
1000
,
1010
0010
0110
0100
0101
0001
0011
0010
,
0110
0100
1100
1000
1001
0001
0101
0100
,
0110
0010
1010
1000
1001
0001
0011
0011
,
0000
0000
1100
0010
0001
0010
1100
1000
,
0001
0100
0011
0100
0010
0100
0110
0010
,
0000
1000
1100
0010
0100
0010
0110
0001
,
0010
0100
1001
0001
1000
0001
1001
1000
,
0000
0010
0110
0001
1000
0001
0110
1000
,
0100
0010
1001
0100
0010
0100
0110
0010
,
0200
0010
0010
0310
0100
0100
0110
0010
,
0020
0000
0000
0000
0000
0000
0000
0000
2000
3000
0000
0000
0000
0000
0000
0000
2000
3000
0000
0000
0000
0000
0000
0000
2030
3000
0000
0000
0000
0000
0000
0000
2010
3000
0000
0000
0000
0000
0000
0000
2000
3000
0000
0000
0000
0000
0000
0000
2002
3003
0000
0000
0000
0000
0000
0000
2002
0000
3003
0000
0000
0000
0000
0000
,
0000
0000
1000
0001
0100
0001
1000
0010
,
0100
0001
0100
0010
1000
0001
1000
0100
,
0010
0001
0100
1000
0010
1000
0001
0100
,
0010
1000
0010
0100
0001
1000
0001
0010
,
0100
1000
0010
0001
1000
0010
0100
0001
,
1000
0001
1000
0010
0100
0001
1010
0000
,
0002
1000
1000
1003
0001
0001
1001
1000
,
2000
0000
0000
0000
0000
0000
0000
0000
0002
0003
0000
0000
0000
0000
0000
0000
0002
0003
0000
0000
0000
0000
0000
0000
3002
0003
0000
0000
0000
0000
0000
0000
1002
0003
0000
0000
0000
0000
0000
0000
0002
0003
0000
0000
0000
0000
0000
0000
2002
0000
3003
0000
0000
0000
0000
0000
0100
0000
0000
0000
0010
0000
0000
0000
,
0100
1000
0100
0010
0100
0001
0100
1000
,
0110
0000
0001
0000
1100
0000
0001
0000
1100
0000
0001
0000
2200
3300
0000
0000
,
0100
0001
0010
0100
1000
0010
0100
0001
,
0110
0000
1000
0000
0011
0000
1000
0000
0011
0000
1000
0000
0022
0033
0000
0000
,
0010
1000
0010
0001
0010
0100
0010
1000
,
0110
0000
0001
0000
1100
0000
0001
0000
1100
0000
0001
0000
2200
3300
0000
0000
,
0100
0001
0100
0010
1000
0100
0010
0001
,
0110
0000
1000
0000
0011
0000
1000
0000
0011
0000
0000
0000
0022
0033
0000
0000
,
1010
1000
1001
0001
0011
0010
0110
0100
,
1100
0000
1000
0000
1010
0000
0010
0000
0110
0000
0100
0000
0001
1000
0001
1000
,
0001
0000
0010
0000
1000
0000
0100
0000
0010
0000
0001
0000
0010
0000
0001
0100
,
0010
1000
0100
0010
0001
0000
1000
0000
0011
0000
1000
0000
0100
0000
0010
0000
,
0001
0000
0010
0000
0100
0000
1000
0000
0110
0000
1000
0000
0100
0000
0010
0100
,
0001
1000
0100
0010
0001
0000
0100
0000
0010
0000
1000
0000
0010
0000
0001
0000
,
1000
0000
0100
0000
0010
0000
0001
0000
1100
0000
0001
0000
0010
0000
0100
0010
,
1000
0001
0010
0100
1000
0000
0100
0000
1001
0000
0010
0000
0001
0000
0100
0000
,
0010
1000
0100
0010
0011
0010
0100
1000
,
0100
0010
1000
0010
0100
0011
1100
0011
,
1100
0000
0001
0000
0100
0000
0010
0000
1100
0000
1000
0000
0010
0000
1000
0010
,
0100
0001
0010
0100
1000
0000
0100
0000
0110
0000
0010
0000
0100
0000
0001
0000
,
0010
0000
0100
0000
1000
0000
0001
0000
0110
0000
1000
0000
0001
0000
1000
0100
,
0010
0001
0100
0010
1000
0000
0001
0000
0010
0000
1000
0000
0001
0000
0100
0000
,
1000
0000
0001
0000
0010
0000
1000
0000
0110
0000
0001
0000
1000
0000
1000
0010
,
0100
0001
0100
0010
1000
0000
0010
0000
1100
0000
0000
0000
0011
0000
0011
0000
,
0012
0000
0100
0000
0100
0000
0000
0003
2100
0000
0010
0000
0010
0000
0001
0100
,
3001
1000
0011
1000
0010
0100
0011
0100
,
0001
0100
1100
1000
0010
0100
0011
1000
,
0100
0000
0010
0000
0011
0000
0001
1000
0100
0000
0010
0000
1001
0000
0010
0000
,
0100
1000
1100
0100
0010
0100
1010
1000
,
0100
0010
0011
0010
0100
1000
1001
1000
,
0001
0100
1010
0100
0010
1000
1010
0100
,
0001
0100
0110
1000
0100
1100
0011
1100
,
0011
0010
0110
0100
1000
0010
0011
0100
,
1000
0010
0110
0100
0001
1000
1100
0100
,
1000
0100
0011
0001
0100
0010
1010
1000
,
0001
0010
0110
1000
0010
0100
1001
0010
,
0001
1000
1010
0010
0001
1000
1100
0100
,
0001
1000
0011
0100
0001
1000
1010
0010
,
1000
0001
0011
0010
1000
0100
2002
3003
,
0220
0330
2020
3030
0202
0303
0220
0330
,
1100
1100
1100
0110
0110
0110
0110
0110
,
1010
1010
0011
0011
0011
0011
0011
0011
,
0012
0000
0000
0000
0010
0000
0000
0000
0200
0300
0000
0000
0010
0000
0000
0000
0100
0000
0000
0000
0010
0000
0000
0000
0200
0300
0000
0000
1000
0000
0000
0000
,
0100
0000
0000
0000
1000
0000
0000
0000
0200
0300
0000
0000
1000
0000
0000
0000
0100
0000
0000
0000
0010
0000
0000
0000
2000
0000
0000
0000
0000
0000
0000
0000
,
3000
0000
0000
0000
0010
0000
0000
0000
0200
0300
0000
0000
1000
0000
0000
0000
0100
0000
0000
0000
0010
0000
0000
0000
0200
0300
0000
0000
1000
0000
0000
0000
,
0010
0000
0000
0000
0010
0000
0000
0000
0200
0300
0000
0000
1000
0000
0000
0000
0010
0000
0000
0000
0010
0000
0000
0000
0203
0300
0000
0000
0110
0000
0000
0000
,
0220
0000
0000
0000
0000
0030
0000
0000
0000
0000
0000
0000
0000
0000
0000
0000
,
0300
0000
0000
0000
;

//---------------dance-single - Steps by Jubo----------------
#NOTES:
     dance-single:
     Steps by Jubo:
     Medium:
     6:
     0.484,0.560,0.378,0.500,0.000,226.000,34.000,45.000,0.000,0.000:
0000
0000
0000
0000
,
0001
1000
0001
0010
,
0100
1000
0002
0000
,
1003
0010
0100
0001
,
0010
0100
2000
0000
,
3001
0001
0001
0001
,
0100
0100
0100
0100
,
0010
0010
0010
0010
,
1000
0000
1000
0000
1000
0000
1010
1010
,
0000
1000
0001
1000
,
0001
0100
0010
0110
,
0000
1000
0100
0010
,
0001
0100
0010
0110
,
0000
0100
0001
1000
,
0010
0100
0001
0101
,
0200
0000
0000
0310
0000
0000
0100
0000
,
0020
0000
0000
0130
0010
0000
0000
0000
,
0000
0001
0100
0010
,
1000
0100
0010
0011
,
0000
1000
0010
0100
,
0001
0010
0100
1100
,
0000
0010
1000
0001
,
0100
0010
1000
0001
,
2000
0000
0000
3001
0000
0000
1000
0000
,
0002
0000
0000
1003
0001
0000
0000
0000
,
0010
1000
0010
0100
,
0110
0110
0110
0110
,
0100
0010
0100
0001
,
0101
0101
0101
0101
,
0001
0100
0001
1000
,
1010
1010
1010
1010
,
1000
0010
1000
0001
,
1001
1001
1001
1001
,
0002
0003
2000
3000
,
0022
0000
0000
0000
0000
0033
0000
0000
,
2000
3000
0010
0100
,
0001
0101
0000
0001
,
0002
0003
2000
0000
,
3001
0001
0010
0100
,
2000
0000
3002
0000
,
0103
0100
0101
0000
,
1000
0100
0010
0001
,
1000
2002
3003
0000
,
0020
0030
0100
0001
,
1000
1010
0000
1000
,
0020
0000
0230
0000
,
0301
0010
0100
1000
,
1100
0000
1001
1000
,
0010
1010
0000
0001
,
0012
0000
2003
0000
,
3002
0003
1000
0100
,
0010
0011
0000
0001
,
1000
0010
0001
0010
,
1000
1000
0010
0010
,
0200
0000
0302
0000
,
1003
0000
0000
1000
,
0100
0010
0001
0010
,
0100
1100
0000
0000
,
2000
0000
0000
3000
0010
0000
0100
0000
,
0001
0000
0002
0000
0000
0003
1000
0000
,
2000
0000
0000
3000
0020
0000
0000
0030
,
0200
0000
0000
0300
0001
0000
1000
0000
,
0001
0000
1000
0010
,
0100
0001
0000
2000
,
3020
0230
0302
2003
,
3020
0100
0130
0100
,
0010
0010
0010
1000
,
2000
0000
0200
0300
0000
0000
0020
0030
,
0000
0000
0002
0003
0000
0000
0002
0003
,
0000
0000
0020
0030
0000
0000
0200
0300
,
0000
0000
0200
0300
0000
0000
0010
0000
,
3002
0000
0000
0000
,
0003
0000
0000
0000
;

//---------------dance-single - Steps by Jubo----------------
#NOTES:
     dance-single:
     Steps by Jubo:
     Easy:
     3:
     0.221,0.400,0.033,0.256,0.000,113.000,3.000,23.000,0.000,0.000:
0000
0000
0000
0000
,
0000
0000
0000
0000
,
0000
0000
0000
0000
,
0000
0000
0000
0000
,
0000
0000
0000
0000
,
0001
0000
0001
0000
,
0001
0000
0100
0000
,
0100
0000
0100
0000
,
0010
0000
0010
0000
,
0010
0000
0000
1000
,
0000
0010
0000
0100
,
0000
0001
0000
0100
,
0000
0010
0000
1000
,
0000
0001
0000
0100
,
0000
0010
0000
0100
,
0000
0001
0000
1000
,
0000
0020
0000
0000
,
0030
1000
0000
0001
,
0000
0100
0000
0010
,
0000
1000
0000
0001
,
0000
0100
0000
0010
,
0000
1000
0000
0001
,
0000
0100
0000
0010
,
0000
1000
0000
0001
,
0000
0100
0000
0000
,
2000
0000
0000
0000
,
0001
0001
0001
3001
,
0002
0000
0000
0000
,
1000
1000
1000
1000
,
2003
0000
0000
0000
,
0001
0001
0001
0001
,
3002
0000
0000
0000
,
1000
1000
1000
1003
,
1001
0000
1001
0000
,
2002
0000
0000
3003
,
2000
0000
0000
0000
,
3020
0000
0000
0000
,
0230
0000
0000
0000
,
0302
0000
0000
0000
,
2003
0000
0000
0000
,
3020
0000
0000
0000
,
0230
0000
0000
0000
,
0302
0000
0000
0000
,
2003
0000
0000
0000
,
3020
0000
0000
0000
,
2030
0000
0000
0000
,
3002
0000
0000
0000
,
0203
0000
0000
0000
,
0320
0000
0000
0000
,
1000
0000
1000
0000
,
1030
0000
0001
0000
,
0100
0000
0010
0000
,
1000
0000
0010
0000
,
0100
0000
0001
0000
,
1000
0000
0010
0000
,
0100
0000
0010
0000
,
1000
0000
0001
0000
,
0100
0000
0010
0000
,
1000
0000
0010
0000
,
0100
0000
0001
0000
,
1000
0000
0010
0000
,
0100
0000
0001
0000
,
1000
0000
0010
0000
,
0100
0000
0001
0000
,
1000
0000
1000
0000
,
2000
0000
3000
0000
,
0000
0000
0000
0000
,
0010
0000
0000
0000
,
0100
0000
0000
0000
,
0010
0000
0000
0000
,
0100
0000
0000
0000
,
0002
0000
0000
0000
,
0003
0000
0000
0000
;

//---------------dance-single - Steps by Jubo----------------
#NOTES:
     dance-single:
     Steps by Jubo:
     Beginner:
     1:
     0.100,0.120,0.000,0.078,0.000,56.000,0.000,7.000,0.000,0.000:
0000
0000
0000
0000
,
0000
0000
0000
0000
,
0000
0000
0000
0000
,
0000
0000
0000
0000
,
0000
0000
0000
0000
,
1000
0000
0000
0000
,
0001
0000
0000
0000
,
1000
0000
0000
0000
,
0001
0000
0000
0000
,
0000
0000
0000
0100
,
0000
0000
0000
0010
,
0000
0000
0000
0100
,
0000
0000
0000
0010
,
0000
0000
0000
0100
,
0000
0000
0000
0010
,
0000
0000
0000
0100
,
0000
0000
0010
0000
,
0000
0000
0000
1000
,
0000
0000
0000
0001
,
0000
0000
0000
0100
,
0000
0000
0000
1000
,
0000
0000
0000
0010
,
0000
0000
0000
1000
,
0000
0000
0000
0001
,
0000
0000
0000
0000
,
2000
0000
0000
0000
,
3000
0000
0000
0000
,
0002
0000
0000
0000
,
0003
0000
0000
0000
,
0200
0000
0000
0000
,
0300
0000
0000
0000
,
0020
0000
0000
0000
,
0030
0000
0000
0000
,
2000
0000
0000
0000
,
0000
0000
0000
3000
,
0000
0000
0001
0000
,
0000
0000
0010
0000
,
0000
0000
0100
0000
,
0000
0000
1000
0000
,
0000
0000
0100
0000
,
0000
0000
0010
0000
,
0000
0000
0001
0000
,
0000
0000
1000
0000
,
0000
0000
0001
0000
,
0000
0000
1000
0000
,
0000
0000
0010
0000
,
0000
0000
0100
0000
,
0000
0000
0010
0000
,
0000
0000
0100
0000
,
0000
0000
0010
0000
,
1000
0000
0000
0000
,
0001
0000
0000
0000
,
0010
0000
0000
0000
,
1000
0000
0000
0000
,
0010
0000
0000
0000
,
0100
0000
0000
0000
,
1000
0000
0000
0000
,
0001
0000
0000
0000
,
1000
0000
0000
0000
,
0001
0000
0000
0000
,
0100
0000
0000
0000
,
0010
0000
0000
0000
,
1000
0000
0000
0000
,
0001
0000
0000
0000
,
0100
0000
0000
0000
,
0020
0000
0000
0000
,
0000
0000
0000
0000
,
0000
0000
0000
0000
,
0000
0000
0000
0000
,
0000
0000
0000
0000
,
0000
0000
0000
0000
,
0230
0000
0000
0000
,
0000
0300
0000
0000
0000
0000
0000
0000
0000
0000
0000
0000
0000
0000
0000
0000
0000
0000
0000
0000
0000
0000
0000
0000
0000
0000
0000
0000
0000
0000
0000
0000
0000
0000
0000
0000
0000
0000
0000
0000
0000
0000
0000
0000
0000
0000
0000
0000
0000
0000
0000
0000
0000
0000
0000
0000
0000
0000
0000
0000
0000
0000
0000
0000
0000
0000
0000
0000
0000
0000
0000
0000
0000
0000
0000
0000
0000
0000
0000
0000
0000
0000
0000
0000
0000
0000
0000
0000
0000
0000
0000
0000
0000
0000
0000
0000
0000
0000
0000
0000
0000
0000
0000
0000
0000
0000
0000
0000
0000
0000
0000
0000
0000
0000
0000
0000
0000
0000
0000
0000
0000
0000
0000
0000
0000
0000
0000
0000
0000
0000
0000
0000
0000
0000
0000
0000
0000
0000
0000
0000
0000
0000
0000
0000
0000
0000
0000
0000
0000
0000
0000
0000
0000
0000
0000
0000
0000
0000
0000
0000
0000
0000
0000
0000
0000
0000
0000
0000
0000
0000
0000
0000
0000
0000
0000
0000
0000
0000
0000
0000
0000
0000
0000
0000
0000
0000
0000
0000
0000
0000
0000
0000
;
